[Fabrebatalla18][RAW] Dragon Ball Z - TV Special 1-2 [Remastered][720p][4꞉3] 龙珠Z特别篇1-2:一个人的最终决战 挑战弗利萨的Z战士 孙悟空之父 + 绝望的反抗!! 仅存的超战士悟饭和特兰克斯

发布时间:2019/12/30 文件个数:2 文件大小:3.3GB
文件信息
  • [Fabrebatalla18][RAW] Dragon Ball Z - TV Special 1-2 [Remastered][720p][4꞉3]
    • [Fabrebatalla18][RAW] Dragon Ball Z - TV Special 1 - Bardock꞉ The Father of Goku [Remastered][720p][4꞉3][99887F67].mkv(1.7GB)
    • [Fabrebatalla18][RAW] Dragon Ball Z - TV Special 2 - The History of Trunks [Remastered][720p][4꞉3][DA3B360B].mkv(1.6GB)
内容介绍

[Fabrebatalla18][RAW] Dragon Ball Z - TV Special 1-2 [Remastered][720p][4꞉3] https://nyaa.si/view/1135394 Source: Animax H264 .TS and GyaO WEB-DL Resolution: 960x720 BitDepth: 8 bits Bitrate: CRF 15 Audio: FLAC 16 bits, Original Broadcast (Ishikawa) Edited: Fabrebatalla18 Bonus: Animax source deloged and decensored with WEB-DL footage. On WEB-DL source FPS pro*ems was fixed. Bonus 2: Both Specials are synchronized with the DVD R2J, so any dub/sub previously synchronized with a DVDRip R2J can be muxed with these raw. *S script TV Special 1: https://paste.ee/r/tihrF *S script TV Special 2: https://paste.ee/r/FEoqn

中文字幕:https://www.lanzous.com/i87gwqj

General Unique ID : 14719156930364746664170413923965568639 (0xB12CE775CE340F000DB50FD405F867F) Complete name : [Fabrebatalla18][RAW] Dragon Ball Z - TV Special 1 - Bardock꞉ The Father of Goku [Remastered][720p][4꞉3][99887F67].mkv Format : Matroska Format version : Version 4 File size : 1.67 GiB Duration : 47 min 52 s Overall bit rate mode : Varia*e Overall bit rate : 4 995 kb/s Encoded date : UTC 2019-04-14 09:08:25 Writing application : mkvmerge v25.0.0 ('Prog Noir') 64-bit Writing library : libebml v1.3.6 + libmatroska v1.4.9 Video ID : 1 Format : *C Format/Info : Advanced Video Codec Format profile : [email protected] Format settings : CABAC / 12 Ref Frames Format settings, CABAC : Yes Format settings, Reference fra : 12 frames Codec ID : V_MPEG4/ISO/*C Duration : 47 min 52 s Bit rate : 4 334 kb/s Width : 960 pixels Height : 720 pixels Display aspect ratio : 4:3 Frame rate mode : Constant Frame rate : 23.976 (24000/1001) FPS Color space : YUV Chroma subsampling : 4:2:0 Bit depth : 8 bits Scan type : Progressive Bits/(Pixel*Frame) : 0.262 Stream size : 1.45 GiB (87%) Writing library : x264 core 157 r2935 545de2f Encoding settings : cabac=1 / ref=12 / de*ock=1:0:0 / analyse=0x3:0x133 / me=umh / subme=10 / psy=1 / psy_rd=1.00:0.00 / mixed_ref=1 / me_range=24 / chroma_me=1 / trellis=2 / 8x8dct=1 / cqm=0 / deadzone=21,11 / fast_pskip=1 / chroma_qp_offset=-2 / threads=7 / lookahead_threads=1 / sliced_threads=0 / nr=0 / decimate=1 / interlaced=0 / *uray_compat=0 / constrained_intra=0 / bframes=8 / b_pyramid=2 / b_adapt=2 / b_bias=0 / direct=3 / weightb=1 / open_gop=0 / weightp=2 / keyint=250 / keyint_min=23 / scenecut=40 / intra_refresh=0 / rc_lookahead=60 / rc=crf / mbtree=1 / crf=15.0 / qcomp=0.60 / qpmin=0 / qpmax=69 / qpstep=4 / vbv_maxrate=62500 / vbv_bufsize=78125 / crf_max=0.0 / nal_hrd=none / filler=0 / ip_ratio=1.40 / aq=1:1.00 Language : Japanese Default : Yes Forced : No Audio ID : 2 Format : FLAC Format/Info : Free Lossless Audio Codec Codec ID : A_FLAC Duration : 47 min 52 s Bit rate mode : Varia*e Bit rate : 659 kb/s Channel(s) : 2 channels Sampling rate : 48.0 kHz Frame rate : 11.719 FPS (4096 SPF) Bit depth : 16 bits Compression mode : Lossless Stream size : 226 MiB (13%) Title : ドラゴンボールZ たったひとりの最終決戦〜フリーザに挑んだZ戦士 孫悟空の父〜 - Doragon Bōru Zetto Tatta Hitori no Saishū Kessen ~Furīza ni Idonda Zetto-senshi Son Gokū no Chichi~ [Original Broadcast (Ishikawa) - VHS] [日本語] Writing library : libFLAC 1.2.1 (UTC 2007-09-17) Language : Japanese Default : Yes Forced : No Menu 00:00:00.000 : en:Intro 00:00:07.257 : en:Opening 00:01:55.115 : en:Prologue 00:02:55.801 : en:Títol 00:03:04.309 : en:Part A 00:12:29.749 : en:Part B 00:23:13.392 : en:Part C 00:34:42.080 : en:Part D 00:46:15.439 : en:Ending

网友评论